<?xml version="1.0" standalone="no"?>
<!DOCTYPE svg PUBLIC "-//W3C//DTD SVG 1.1//EN" "http://www.w3.org/Graphics/SVG/1.1/DTD/svg11.dtd">
<svg xmlns="http://www.w3.org/2000/svg">
<metadata>Copyright (C) 2024 by original authors @ fontello.com</metadata>
<defs>
<font id="mj-holding-icon" horiz-adv-x="1000" >
<font-face font-family="mj-holding-icon" font-weight="400" font-stretch="normal" units-per-em="1000" ascent="850" descent="-150" />
<missing-glyph horiz-adv-x="1000" />
<glyph glyph-name="arrow-down" unicode="&#xe800;" d="M556 642v-584c0-15-6-28-17-39-11-11-24-16-39-16-15 0-28 5-39 16-11 11-17 24-17 39v584c0 15 6 28 17 39 11 11 24 16 39 16 15 0 28-5 39-16 11-11 17-24 17-39z m275-331l-292-292c-11-11-24-16-39-16-15 0-28 5-39 16l-292 292c-11 11-16 24-16 39 0 15 5 28 16 39 11 11 24 17 39 17 16 0 29-6 40-17l252-252 252 252c11 11 24 17 40 17s28-6 39-17c11-11 16-24 16-39 0-15-5-28-16-39z" horiz-adv-x="1000" />

<glyph glyph-name="arrow-left" unicode="&#xe801;" d="M792 295h-584q-23 0-39 16-16 16-16 39t16 39q16 17 39 17h584q23 0 39-17 16-16 16-39t-16-39q-16-16-39-16z m-331-276l-292 292q-16 16-16 39t16 39l292 292q16 16 39 16t39-16q17-16 17-39t-17-40l-252-252 252-252q17-17 17-40 0-23-17-39-16-16-39-16t-39 16z" horiz-adv-x="1000" />

<glyph glyph-name="arrow-right" unicode="&#xe802;" d="M208 406h583c15 0 28-5 39-16 11-11 16-24 16-39 0-16-5-29-16-40-11-11-24-16-39-16h-583c-15 0-28 5-39 16-11 11-16 24-16 40s5 28 16 39c11 11 24 16 39 16z m331 275l291-291c11-11 16-24 16-39 0-16-5-29-16-40l-291-291c-11-11-24-16-39-16s-29 5-40 16c-11 11-16 24-16 39 0 15 5 29 16 39l252 253-252 252c-11 11-16 24-16 39 0 15 5 28 16 39 11 11 24 16 40 16s28-5 39-16z" horiz-adv-x="999" />

<glyph glyph-name="arrow-up" unicode="&#xe803;" d="M445 58v584c0 15 5 28 16 39 11 11 24 16 39 16 15 0 28-5 39-16 11-11 17-24 17-39v-584c0-15-6-28-17-39-11-11-24-16-39-16-15 0-28 5-39 16-11 11-16 24-16 39z m-276 331l292 292c11 11 24 16 39 16 15 0 28-5 39-16l292-292c11-11 16-24 16-39 0-15-5-28-16-39-11-11-24-17-39-17-16 0-29 6-40 17l-252 252-252-252c-11-11-24-17-40-17-15 0-28 6-39 17-11 11-16 24-16 39 0 15 5 28 16 39z" horiz-adv-x="1000" />

<glyph glyph-name="attrs" unicode="&#xe804;" d="M734 449h-219c-17 0-31 14-31 31 0 18 14 32 31 32h219c17 0 31-14 31-32 0-17-13-31-31-31z m-437-31c-8 0-16 2-22 9l-32 31c-12 12-12 32 0 44 12 12 32 12 45 0l9-9 71 72c12 12 32 12 45 0 12-12 12-32 0-45l-94-93c-6-6-14-9-22-9z m437-260h-219c-17 0-31 14-31 31 0 17 14 31 31 31h219c17 0 31-14 31-31 0-17-13-31-31-31z m-437-32c-8 0-16 3-22 9l-32 31c-12 12-12 32 0 44 12 13 32 13 45 0l9-9 71 72c12 12 32 12 45 0 12-12 12-32 0-44l-94-94c-6-6-14-9-22-9z m328-224h-250c-226 0-323 97-323 323v250c0 226 97 323 323 323h250c226 0 323-97 323-323v-250c0-226-97-323-323-323z m-250 833c-192 0-260-68-260-260v-250c0-192 68-260 260-260h250c192 0 260 68 260 260v250c0 192-68 260-260 260h-250z" horiz-adv-x="1000" />

<glyph glyph-name="attrs-bold" unicode="&#xe805;" d="M675 767h-350c-151 0-242-91-242-242v-350c0-151 91-242 242-242h350c151 0 242 91 242 242v350c0 151-91 242-242 242z m-260-538l-93-94c-7-6-14-9-22-9-8 0-17 3-22 9l-32 32c-12 12-12 32 0 44 12 12 32 12 44 0l10-9 71 71c12 12 32 12 44 0 13-12 13-32 0-44z m0 292l-93-94c-7-6-14-9-22-9-8 0-17 3-22 9l-32 31c-12 12-12 32 0 45 12 12 32 12 44 0l10-10 71 72c12 12 32 12 44 0 13-12 13-32 0-44z m317-363h-219c-17 0-31 14-31 31 0 17 14 31 31 31h219c17 0 31-14 31-31 0-17-14-31-31-31z m0 291h-219c-17 0-31 14-31 31 0 18 14 32 31 32h219c17 0 31-14 31-32 0-17-14-31-31-31z" horiz-adv-x="1000" />

<glyph glyph-name="author" unicode="&#xe806;" d="M601 588q0-94-67-161-67-67-161-67-94 0-161 67-67 67-67 161 0 94 67 161 67 67 161 67 94 0 161-67 67-67 67-161z m-145-703q-7-1-15 0-15 3-23 16-9 13-6 28l19 97v0q3 16 6 23 4 9 10 17 4 6 15 18l198 197q74 75 148 0 31-30 31-74 0-43-31-74l-198-197 0-1q-11-11-17-15-8-6-18-10-7-2-23-6h0z m70 703q0 153-153 153-63 0-108-45-45-45-45-108 0-153 153-153 153 0 153 153z m-523-666q0 153 108 262 109 108 262 108 27 0 53-3 15-2 25-15 9-12 7-28-2-15-15-24-12-10-28-8-21 3-42 3-122 0-209-86-86-87-86-209 0-16-11-27-11-11-27-11-15 0-26 11-11 11-11 27z m494 48l41 8q9 2 10 2 1 1 2 1 1 1 7 7l0 1 198 197q9 9 9 21 0 13-9 21-21 21-42 0l-198-197q-6-7-7-8-1-1-1-2 0-1-2-10l-8-41z" horiz-adv-x="850" />

<glyph glyph-name="bag-cross" unicode="&#xe807;" d="M558 95c-8 0-16 3-22 10l-115 115c-12 12-12 32 0 44 12 12 32 12 44 0l115-115c12-12 12-32 0-44-6-7-14-10-22-10z m-116-1c-8 0-16 3-22 9-12 12-12 32 0 45l115 115c12 12 32 12 44 0 12-13 12-33 0-45l-115-115c-6-6-14-9-22-9z m-226 490c-8 0-16 4-22 9-12 12-12 32 0 45l151 151c13 12 33 12 45 0 12-12 12-32 0-44l-152-152c-6-5-14-9-22-9z m568 0c-8 0-16 3-22 9l-152 152c-12 12-12 32 0 44 13 12 33 12 45 0l151-151c12-13 12-33 0-45-6-5-14-9-22-9z m58-176h-675c-29 0-63 0-87 24-19 19-28 48-28 91 0 115 84 115 124 115h648c40 0 124 0 124-115 0-43-9-72-28-91-22-22-51-24-78-24z m-666 63h658c19-1 36-1 42 5 3 3 9 13 9 47 0 47-12 52-61 52h-648c-50 0-61-5-61-52 0-34 6-44 9-47 6-5 24-5 42-5h10z m444-569h-251c-149 0-182 89-195 166l-59 360c-3 17 9 33 26 36 17 3 33-9 36-26l58-360c13-73 38-113 134-113h251c108 0 120 37 133 110l70 364c4 17 20 29 37 25 17-4 28-20 25-37l-70-364c-17-85-44-161-195-161z" horiz-adv-x="1000" />

<glyph glyph-name="bottom" unicode="&#xe808;" d="M500 150c-29 0-58 11-80 33l-272 272c-12 12-12 32 0 44 12 12 32 12 44 0l272-271c20-20 52-20 72 0l272 271c12 12 32 12 44 0 12-12 12-32 0-44l-272-272c-22-22-51-33-80-33z" horiz-adv-x="1000" />

<glyph glyph-name="box" unicode="&#xe809;" d="M480 308c-5 0-10 1-15 4l-353 204c-14 9-20 27-11 42 8 14 27 19 41 10l338-195 336 194c14 9 33 3 41-11 9-14 3-32-11-41l-350-203c-6-2-11-4-16-4z m0-362c-16 0-30 13-30 30v362c0 17 14 30 30 30 16 0 30-13 30-30v-362c0-17-14-30-30-30z m0-16c-35 0-70 8-98 23l-213 119c-58 32-103 109-103 175v226c0 67 45 143 103 176l213 118c55 31 141 31 196 0l213-119c58-32 103-109 103-175v-226c0-67-45-143-103-176l-213-118c-28-15-63-23-98-23z m0 800c-25 0-50-5-68-15l-214-119c-38-21-72-79-72-123v-226c0-44 34-101 72-123l214-119c36-20 100-20 136 0l214 119c38 22 72 79 72 123v226c0 44-34 102-72 123l-214 119c-18 10-43 15-68 15z" horiz-adv-x="960" />

<glyph glyph-name="calendar" unicode="&#xe80a;" d="M329 707v-48h333v48q0 13 10 22 9 9 22 9 13 0 22-9 9-9 9-22v-48h0q75 0 98-12 32-17 48-49 12-23 12-97v-381q0-74-12-98-16-32-48-48-23-12-98-12h-459q-74 0-98 12-32 16-48 48-12 24-12 98v381q0 74 12 97 16 32 48 49 24 12 98 12h0v48q0 13 9 22 10 9 22 9 13 0 23-9 9-9 9-22z m-63-682h459q60 0 70 5 14 7 21 21 5 10 5 69v278h-651v-278q0-59 5-69 8-14 21-21 11-5 70-5z m31 571h-31q-59 0-70-5-13-7-21-21-5-10-5-69v-40h651v40q0 59-5 69-7 14-21 21-10 5-70 5h-428z" horiz-adv-x="1000" />

<glyph glyph-name="calendar-2" unicode="&#xe80b;" d="M333 610c-17 0-31 15-31 32v125c0 17 14 31 31 31 17 0 32-14 32-31v-125c0-17-15-32-32-32z m334 0c-17 0-32 15-32 32v125c0 17 15 31 32 31 17 0 31-14 31-31v-125c0-17-14-32-31-32z m187-170h-708c-17 0-31 14-31 31 0 17 14 32 31 32h708c17 0 31-15 31-32 0-17-14-31-31-31z m-187-538h-334c-152 0-239 88-239 240v354c0 152 87 239 239 239h334c152 0 239-87 239-239v-354c0-152-87-240-239-240z m-334 771c-119 0-177-58-177-177v-354c0-119 58-177 177-177h334c119 0 177 58 177 177v354c0 119-58 177-177 177h-334z m21-427c-5 0-11 1-16 3-5 2-9 5-13 9-4 4-7 9-9 14-2 5-3 10-3 16 0 10 4 21 12 29 4 4 8 7 13 9 8 3 16 4 25 2 2 0 5-1 7-2 3-1 5-2 8-4 2-2 4-3 6-5 1-2 4-4 5-6 1-3 3-5 4-8 1-2 2-5 2-7 0-3 1-5 1-8 0-11-5-22-12-30-8-8-19-12-30-12z m146 0c-11 0-22 4-30 12-1 2-3 4-5 6-1 3-2 5-3 8-2 2-2 5-3 7 0 3-1 6-1 9 0 5 2 10 4 15 2 5 5 10 8 14 12 12 31 16 46 9 5-2 9-5 14-9 7-8 12-19 12-29 0-3-1-6-1-9-1-2-1-5-3-7 0-3-2-5-3-8-2-2-4-4-5-6-5-4-9-7-14-9-5-2-11-3-16-3z m-146-146c-5 0-11 1-16 3-5 2-9 5-13 9-4 4-7 8-9 14-2 5-3 10-3 16 0 11 4 21 12 29 4 4 8 7 13 9 16 7 34 3 46-9 1-2 4-4 5-6 1-2 3-5 4-7 1-3 2-5 2-8 0-3 1-6 1-8 0-11-5-22-12-30-8-7-19-12-30-12z" horiz-adv-x="1000" />

<glyph glyph-name="call-calling" unicode="&#xe80c;" d="M727-98c-47 0-97 11-148 33-50 21-100 50-149 86-49 36-96 76-141 119-44 45-84 92-119 140-36 50-65 100-85 149-22 51-33 101-33 149 0 32 6 63 17 92 12 29 31 57 56 80 32 32 69 48 108 48 16 0 33-4 47-10 16-8 30-19 40-34l97-136c8-13 15-24 20-36 5-12 8-25 8-37 0-16-5-31-13-46-7-11-16-23-28-35l-29-30c1-1 1-2 2-3 5-8 15-23 34-46 20-23 39-45 59-64 24-24 45-43 64-59 24-20 39-30 48-35l-1-2 31 30c13 13 25 23 37 29 23 14 52 16 81 4 11-4 23-10 35-19l139-99c15-10 26-23 33-39 6-16 9-31 9-45 0-20-4-40-13-59-9-19-20-35-33-50-24-26-50-45-80-57-29-12-60-18-93-18z m-494 833c-23 0-44-10-65-30-19-17-32-37-40-58-9-22-13-45-13-69 0-39 9-81 27-125 19-44 45-90 78-135 34-46 72-91 113-133 42-41 87-80 133-113 45-33 92-60 137-79 72-31 138-38 193-15 22 9 40 22 57 42 10 10 17 21 24 35 5 10 7 21 7 32 0 6-1 13-4 21-2 2-4 7-12 12l-138 98c-9 6-16 10-23 13-9 4-13 8-27-1-9-4-16-10-25-19l-31-31c-16-16-41-20-61-12l-11 5c-17 9-37 23-59 42-20 17-42 37-68 63-20 20-41 42-62 67-20 23-34 43-43 59l-5 12c-2 10-3 15-3 21 0 15 6 28 16 39l31 32c9 9 15 17 19 24 3 5 5 10 5 14 0 3-2 8-4 13-3 7-7 14-13 22l-97 137c-4 6-9 10-15 13-7 3-14 4-21 4z m348-510l-6-29 11 29c-2 1-4 0-5 0z m190 219c-17 0-31 14-31 31 0 15-15 46-40 73-25 26-52 42-75 42-17 0-31 14-31 31 0 17 14 31 31 31 40 0 83-22 120-61 35-37 57-83 57-116 0-17-14-31-31-31z m146 0c-17 0-32 14-32 31 0 144-116 260-260 260-17 0-31 15-31 32 0 17 14 31 31 31 178 0 323-145 323-323 0-17-14-31-31-31z" horiz-adv-x="1000" />

<glyph glyph-name="card" unicode="&#xe80d;" d="M917 465h-834c-17 0-31 14-31 31 0 17 14 31 31 31h834c17 0 31-14 31-31 0-17-14-31-31-31z m-584-334h-83c-17 0-31 14-31 32 0 17 14 31 31 31h83c17 0 32-14 32-31 0-18-15-32-32-32z m271 0h-166c-18 0-32 14-32 32 0 17 14 31 32 31h166c17 0 31-14 31-31 0-18-14-32-31-32z m128-166h-464c-165 0-216 50-216 214v342c0 164 51 214 216 214h463c166 0 217-50 217-214v-342c0-164-50-214-216-214z m-464 708c-130 0-153-23-153-152v-342c0-129 23-151 153-151h463c131 0 154 22 154 151v342c0 129-23 152-154 152h-463z" horiz-adv-x="1000" />

<glyph glyph-name="card-bold" unicode="&#xe80e;" d="M917 535c0-27-23-50-50-50h-734c-27 0-50 23-50 50v1c0 95 78 172 173 172h488c95 0 173-77 173-173z m-834-162v-209c0-95 78-172 173-172h488c95 0 173 77 173 173v208c0 27-23 50-50 50h-734c-27 0-50-23-50-50z m250-242h-83c-17 0-31 14-31 32 0 17 14 31 31 31h83c18 0 32-14 32-31 0-18-14-32-32-32z m271 0h-166c-17 0-32 14-32 32 0 17 15 31 32 31h166c17 0 32-14 32-31 0-18-15-32-32-32z" horiz-adv-x="1000" />

<glyph glyph-name="cheque" unicode="&#xe80f;" d="M688-15h-375c-32 0-55 2-74 5-139 15-166 98-166 235v250c0 138 27 220 167 236 18 2 41 4 73 4h375c31 0 54-2 73-5 139-15 166-97 166-235v-250c0-137-27-220-167-236-18-2-41-4-72-4z m-375 667c-29 0-49-1-65-3-85-10-113-36-113-174v-250c0-138 28-164 112-174 17-2 37-3 66-3h375c28 0 48 1 64 3 85 9 113 36 113 174v250c0 138-28 164-112 174-17 2-37 3-65 3h-375z m395-250h-145c-18 0-32 14-32 31 0 17 14 32 32 32h145c17 0 32-15 32-32 0-17-15-31-32-31z m-287-10c-23 0-42 18-42 41 0 23 19 42 42 42h0c23 0 42-19 42-42 0-23-19-41-42-41z m-125 0c-23 0-42 18-42 41 0 23 19 42 42 42 23 0 42-19 42-42 0-23-19-41-42-41z m412-219h-415c-18 0-32 14-32 31 0 17 14 31 31 31h416c17 0 32-14 32-31 0-17-15-31-32-31z" horiz-adv-x="1000" />

<glyph glyph-name="cheque-bold" unicode="&#xe810;" d="M761 710c-19 3-42 5-73 5h-375c-32 0-55-2-73-4-140-16-167-98-167-236v-250c0-137 27-220 166-235 19-3 42-5 74-5h375c31 0 54 2 72 4 140 16 167 98 167 236v250c0 138-27 220-166 235z m-341-235c24 0 43-19 43-42 0-23-19-41-42-41-23 0-42 18-42 41 0 23 19 42 41 42z m-125 0c24 0 43-19 43-42 0-23-19-41-42-41-23 0-42 18-42 41 0 23 19 42 41 42z m413-302h-415c-18 0-32 14-32 31 0 17 14 31 31 31h416c17 0 32-14 32-31 0-17-15-31-32-31z m0 229h-145c-18 0-32 14-32 31 0 17 14 32 32 32h145c17 0 32-15 32-32 0-17-15-31-32-31z" horiz-adv-x="1000" />

<glyph glyph-name="chevron-left" unicode="&#xe811;" d="M500 850q207 0 354-146t146-354q0-207-146-354t-354-146q-207 0-354 146-146 147-146 354 0 207 146 354 147 146 354 146z m0-29q-195 0-333-138-138-138-138-333t138-333q138-138 333-138t333 138q138 138 138 333t-138 333q-138 138-333 138z m45-624l-132 132q-9 9-9 21 0 12 9 21l132 132q9 9 21 9 12 0 21-9 9-8 9-21 0-12-9-20l-112-112 112-111q9-9 9-21t-9-21q-9-9-21-9-12 0-21 9z" horiz-adv-x="1000" />

<glyph glyph-name="chevron-right" unicode="&#xe812;" d="M500 850q-207 0-354-146-146-147-146-354t146-354q147-146 354-146t354 146q146 147 146 354 0 207-146 354-147 146-354 146z m0-29q195 0 333-138 138-138 138-333t-138-333q-138-138-333-138t-333 138q-138 138-138 333t138 333q138 138 333 138z m-87-582l112 111-112 112q-9 8-9 20t9 21q9 9 21 9 12 0 21-9l132-132q9-9 9-21 0-12-9-21l-132-132q-9-9-21-9-12 0-21 9-9 9-9 21 0 12 9 21z" horiz-adv-x="1000" />

<glyph glyph-name="clipboard-text" unicode="&#xe813;" d="M625 310h-292c-17 0-31 15-31 32 0 17 14 31 31 31h292c17 0 31-14 31-31 0-17-14-32-31-32z m-109-166h-183c-17 0-31 14-31 31 0 17 14 31 31 31h183c17 0 31-14 31-31 0-17-14-31-31-31z m67 425h-166c-40 0-115 0-115 114 0 115 75 115 115 115h166c40 0 115 0 115-115 0-40 0-114-115-114z m-166 166c-42 0-52 0-52-52 0-52 10-52 52-52h166c52 0 52 11 52 52 0 52-10 52-52 52h-166z m208-833h-250c-234 0-281 108-281 281v250c0 190 69 272 238 280 16 1 32-12 33-29 0-18-13-32-30-33-118-6-179-42-179-218v-250c0-154 31-218 219-218h250c188 0 219 64 219 218v250c0 176-61 212-179 218-17 1-30 16-30 33 1 17 16 31 33 30 170-9 238-91 238-280v-250c0-174-47-282-281-282z" horiz-adv-x="1000" />

<glyph glyph-name="clock" unicode="&#xe814;" d="M500-98c-247 0-448 201-448 448 0 247 201 448 448 448 247 0 448-201 448-448 0-247-201-448-448-448z m0 833c-212 0-385-172-385-385s173-385 385-385 385 173 385 385-172 385-385 385z m155-549c-6 0-11 2-16 5l-129 77c-32 19-56 61-56 98v171c0 17 14 31 31 31 17 0 31-14 31-31v-171c0-15 13-37 26-44l129-77c15-9 19-28 11-43-7-10-17-16-27-16z" horiz-adv-x="1000" />

<glyph glyph-name="comment" unicode="&#xe815;" d="M796 456q13-3 21-7 31-15 47-47 12-23 12-97v-313q0-11-8-20-8-8-20-8-8 0-15 5l-88 59q-16 10-20 12-6 3-12 4-5 1-24 1h-194q-74 0-97 11-31 16-47 48-2 3-4 8l-128-64q-6-3-13-3-11 0-19 8-8 8-8 19v434q0 74 11 97 16 31 48 47 23 12 97 12h305q74 0 97-12 31-16 47-47 12-23 12-97v-50z m-400-303q1-17 4-24 8-15 23-23 12-6 72-6h194q24 0 34-2 12-2 24-7 9-4 29-17l45-30v261q0 61-6 72-8 15-23 23-11 6-72 6h-225q-60 0-72-6-15-8-23-23-5-11-5-72v-104q0-32 0-44 1-2 1-4z m344 308v45q0 60-5 72-8 15-23 23-11 5-72 5h-305q-61 0-72-5-15-8-23-23-6-12-6-72v-389l105 53q0 12 0 31v104q0 74 12 97 16 32 47 47 23 12 97 12h225q11 0 20 0z" horiz-adv-x="1000" />

<glyph glyph-name="comments" unicode="&#xe816;" d="M704 58c-13 0-26 4-37 11l-40 26c-11 8-17 22-13 35 3 10 4 21 4 33v170c0 68-42 110-110 110h-283c-5 0-10 0-14 0-9-1-17 2-24 8-7 6-10 14-10 23v115c0 123 86 209 208 209h355c122 0 208-86 208-209v-212c0-61-20-114-58-151-30-30-72-50-119-56v-46c0-25-14-47-36-59-10-5-20-7-31-7z m-25 78l27-15c3 1 3 3 3 4v75c0 17 14 31 31 31 44 0 81 14 106 40 27 26 40 62 40 106v213c0 88-57 145-146 145h-354c-89 0-146-57-146-145v-84h268c102 0 173-71 173-173v-169c0-10-1-19-2-28z m-426-234c-9 0-19 2-28 7-19 10-31 30-31 53v31c-37 6-69 22-94 46-31 31-48 75-48 125v169c0 95 62 164 153 172 7 1 13 1 20 1h283c102 0 173-71 173-173v-169c0-19-2-36-7-51-19-75-82-122-166-122h-104l-118-79c-10-7-21-10-33-10z m-28 542c-5 0-10-1-14-1-60-5-96-47-96-110v-169c0-34 10-61 30-81 19-19 47-30 80-30 17 0 31-14 31-31v-55l121 81c5 3 11 5 18 5h113c55 0 94 28 106 76 3 11 4 22 4 35v169c0 68-42 111-110 111h-283z" horiz-adv-x="1000" />

<glyph glyph-name="comments-bold" unicode="&#xe817;" d="M650 333v-169c0-15-2-29-6-42-15-62-66-100-136-100h-113l-126-84c-19-13-44 1-44 24v60c-42 0-78 14-102 39-25 25-40 60-40 103v169c0 80 50 134 125 141 6 1 11 1 17 1h283c85 0 142-57 142-142z m90-133c53 0 97 18 128 49 31 31 49 75 49 128v213c0 98-79 177-177 177h-355c-97 0-177-79-177-177v-32c0-11 10-20 21-20h279c113 0 204-92 204-205v-112c0-12 9-21 21-21h7z" horiz-adv-x="1000" />

<glyph glyph-name="content" unicode="&#xe818;" d="M625-98h-250c-226 0-323 97-323 323v250c0 226 97 323 323 323h208c17 0 32-14 32-31 0-17-15-32-32-32h-208c-192 0-260-68-260-260v-250c0-192 68-260 260-260h250c192 0 260 68 260 260v208c0 17 15 32 32 32 17 0 31-15 31-32v-208c0-226-97-323-323-323z m292 500h-167c-142 0-198 56-198 198v167c0 12 8 24 19 28 12 5 25 3 34-6l334-334c9-8 11-22 6-34-5-11-16-19-28-19z m-302 289v-91c0-107 28-135 135-135h91l-226 226z m-73-414h-250c-17 0-32 14-32 31 0 17 15 32 32 32h250c17 0 31-15 31-32 0-17-14-31-31-31z m-84-167h-166c-17 0-32 15-32 32 0 17 15 31 32 31h166c17 0 32-14 32-31 0-17-15-32-32-32z" horiz-adv-x="1000" />

<glyph glyph-name="content-bold" unicode="&#xe819;" d="M658 758c-17 17-46 5-46-18v-146c0-61 51-111 114-111 40 0 95 0 142 0 24 0 36 27 20 44-60 61-168 169-230 231z m196-333h-120c-99 0-179 81-179 180v120c0 23-19 42-42 42h-177c-128 0-232-84-232-232v-370c0-148 104-232 232-232h328c128 0 232 84 232 232v219c0 23-19 41-42 41z m-375-315h-166c-18 0-32 15-32 32 0 17 14 31 32 31h166c17 0 31-14 31-31 0-17-14-32-31-32z m84 167h-250c-18 0-32 14-32 31 0 17 14 32 32 32h250c17 0 31-15 31-32 0-17-14-31-31-31z" horiz-adv-x="1000" />

<glyph glyph-name="copy" unicode="&#xe81a;" d="M694 321v-224q0-85-52-138-53-52-137-52h-260q-84 0-137 52-52 53-52 138v324q0 84 52 137 53 52 137 52h160q79 0 134-55l100-99q55-56 55-135z m-55 0q0 56-39 95l-100 99q-39 40-95 40h-160q-134 0-134-134v-324q0-62 37-98 36-37 97-37h260q134 0 134 135z m305 185v-224q0-85-52-137-53-53-137-53h-88q-12 0-20 8-8 8-8 20v201q0 56-39 95l-100 99q-39 40-95 40h-72q-11 0-19 8-8 8-8 20v23q0 190 189 190h160q79 0 134-56l100-100q55-55 55-134z m-55 0q0 56-39 95l-100 100q-39 39-95 39h-160q-132 0-134-130h44q79 0 134-55l100-100q55-55 55-134v-174h61q134 0 134 135z" horiz-adv-x="1000" />

<glyph glyph-name="cross" unicode="&#xe81b;" d="M535 325l283 282c9 10 9 26 0 36-10 9-26 9-36 0l-282-283-282 283c-10 9-26 9-36 0-9-10-9-26 0-36l283-282-283-282c-9-10-9-26 0-35 5-5 12-8 18-8s13 3 18 8l282 282 282-282c5-5 12-8 18-8 6 0 13 3 18 8 9 9 9 25 0 35l-283 282z" horiz-adv-x="1000" />

<glyph glyph-name="delivery" unicode="&#xe81c;" d="M542 235h-459c-17 0-31 15-31 32v333c0 109 89 198 198 198h375c17 0 31-14 31-31v-417c0-63-51-115-114-115z m-427 63h427c29 0 52 23 52 52v385h-344c-74 0-135-60-135-135v-302z m677-313h-42c-17 0-31 15-31 32 0 28-23 52-52 52-29 0-52-24-52-52 0-17-14-32-32-32h-166c-17 0-31 15-31 32 0 28-24 52-53 52-28 0-52-24-52-52 0-17-14-32-31-32h-42c-86 0-156 70-156 157v125c0 17 14 31 31 31h459c29 0 52 23 52 52v292c0 17 14 31 31 31h77c41 0 79-22 99-58l72-125c5-9 5-21 0-31-6-9-16-15-27-15h-54c-6 0-11-5-11-11v-125c0-5 5-10 11-10h125c17 0 31-14 31-31v-125c0-87-70-157-156-157z m-15 63h15c51 0 94 42 94 94v93h-94c-40 0-73 33-73 73v125c0 40 32 73 73 73l-45 78c-9 16-26 26-45 26h-46v-260c0-63-51-115-114-115h-427v-93c0-52 42-94 93-94h15c14 48 58 83 110 83 53 0 97-35 111-83h113c14 48 58 83 110 83 53 0 96-35 110-83z m-444-146c-63 0-114 51-114 115 0 63 51 114 114 114 64 0 115-51 115-114 0-64-51-115-115-115z m0 167c-28 0-52-24-52-52 0-29 24-52 52-52 29 0 53 23 53 52 0 28-24 52-53 52z m334-167c-64 0-115 51-115 115 0 63 51 114 115 114 63 0 114-51 114-114 0-64-51-115-114-115z m0 167c-29 0-52-24-52-52 0-29 23-52 52-52 29 0 52 23 52 52 0 28-23 52-52 52z m250 166h-125c-40 0-73 33-73 73v125c0 40 33 73 73 73h54c11 0 21-6 27-16l71-125c2-4 4-10 4-15v-83c0-17-14-32-31-32z m-125 209c-6 0-11-5-11-11v-125c0-5 5-10 11-10h94v44l-59 102h-35z" horiz-adv-x="1000" />

<glyph glyph-name="delivery-2" unicode="&#xe81d;" d="M500 304h42q46 0 46 46v379h-338q-76 0-113-66-7-14-22-18-15-4-29 4-13 7-17 22-5 15 3 29 58 104 178 104h375q16 0 27-11 11-11 11-26v-417q0-121-121-121h-42q-16 0-26 11-11 11-11 27 0 15 11 26 10 11 26 11z m-379-162q0-88 87-88h10q9 27 30 48 35 36 85 36 50 0 86-36 21-21 30-48h100q17 84 118 84 100 0 117-84h8q36 0 62 26 25 25 25 62v87h-87q-80 0-80 79v125q0 33 24 56 19 20 45 23l-39 69q-14 23-40 23h-40v-254q0-50-35-85-35-36-85-36h-42q-16 0-27 11-11 11-11 27 0 15 11 26 11 11 27 11h42q45 0 45 46v292q0 15 11 26 11 11 27 11h77q69 0 105-61l71-124q5-9 5-19 0-15-11-26-11-11-27-11h-53q-5 0-5-5v-125q0-4 5-4h125q15 0 26-11 11-11 11-26v-125q0-68-47-115-48-48-115-48h-42q-16 0-27 11-11 11-11 27 0 19-13 32-14 14-32 14-46 0-46-46 0-16-11-27-11-11-27-11h-166q-16 0-27 11-11 11-11 27 0 46-46 46t-46-46q0-16-10-27-11-11-27-11h-42q-67 0-115 48-47 47-47 115 0 15 11 26 11 11 26 11 16 0 27-11 11-11 11-26z m212-246q-50 0-85 35-35 36-35 86 0 121 120 121 121 0 121-121 0-50-35-86-36-35-86-35z m0 75q46 0 46 46 0 46-46 46-19 0-32-14-13-13-13-32 0-46 45-46z m334-75q-50 0-86 35-35 36-35 86 0 50 35 85 36 36 86 36 120 0 120-121 0-121-120-121z m0 75q45 0 45 46 0 46-45 46-46 0-46-46 0-46 46-46z m287 379v-83q0-16-11-27-11-11-26-11h-125q-79 0-79 79v125q0 80 79 80h53q22 0 33-19l71-125q5-9 5-19z m-75-10l-55 98h-32q-4 0-4-5v-125q0-4 4-4h87v36z m-796 214h250q16 0 27-11 11-11 11-26 0-16-11-27-11-11-27-11h-250q-15 0-26 11-11 11-11 27 0 15 11 26 11 11 26 11z m0-125h167q16 0 27-11 10-11 10-26 0-16-10-27-11-11-27-11h-167q-15 0-26 11-11 11-11 27 0 15 11 26 11 11 26 11z m0-125h84q15 0 26-11 11-11 11-26 0-16-11-27t-26-11h-84q-15 0-26 11-11 11-11 27 0 15 11 26 11 11 26 11z" horiz-adv-x="1000" />

<glyph glyph-name="delivery-bold" unicode="&#xe81e;" d="M583 728v-346c0-42-34-77-77-77h-381c-23 0-42 19-42 42v266c0 85 69 154 154 154h308c21 0 38-17 38-39z m313-524c12 0 21-9 21-21v-41c0-69-56-125-125-125 0 68-56 125-125 125s-125-57-125-125h-84c0 68-56 125-125 125s-125-57-125-125c-69 0-125 56-125 125v83c0 23 19 42 42 42h396c57 0 104 46 104 104v229c0 23 19 42 42 42h35c30 0 57-17 72-42l27-47c4-7-1-15-9-15-58 0-104-47-104-105v-125c0-57 46-104 104-104h104z m-563-271c46 0 84 38 84 84 0 46-38 83-84 83-46 0-83-37-83-83 0-46 37-84 83-84z m334 0c46 0 83 38 83 84 0 46-37 83-83 83-46 0-84-37-84-83 0-46 38-84 84-84z m250 395v-61h-125c-23 0-42 18-42 41v125c0 23 19 42 42 42h54l60-106c7-12 11-26 11-41z" horiz-adv-x="1000" />

<glyph glyph-name="document-download" unicode="&#xe81f;" d="M375 110c-4 0-8 1-12 3-12 5-19 16-19 29v250c0 17 14 31 31 31 17 0 31-14 31-31v-175l30 30c12 12 32 12 44 0 13-12 13-32 0-44l-83-83c-6-6-14-10-22-10z m0 0c-8 0-16 3-22 10l-83 83c-12 12-12 32 0 44 12 12 32 12 44 0l83-83c12-12 12-32 0-44-6-7-14-10-22-10z m250-208h-250c-226 0-323 97-323 323v250c0 226 97 323 323 323h208c17 0 32-14 32-31 0-17-15-32-32-32h-208c-192 0-260-68-260-260v-250c0-192 68-260 260-260h250c192 0 260 68 260 260v208c0 17 15 32 32 32 17 0 31-15 31-32v-208c0-226-97-323-323-323z m292 500h-167c-142 0-198 56-198 198v167c0 12 8 24 19 28 12 5 25 3 34-6l334-334c9-8 11-22 6-34-5-11-16-19-28-19z m-302 289v-91c0-107 28-135 135-135h91l-226 226z" horiz-adv-x="1000" />

<glyph glyph-name="download" unicode="&#xe820;" d="M725 281h25q61 0 79-8 37-15 53-52 7-18 7-79 0-61-7-79-16-37-53-53-18-7-79-7h-500q-61 0-79 7-37 16-53 53-7 18-7 79 0 61 7 79 16 37 53 52 18 8 79 8h25q14 0 14-14 0-14-14-14h-25q-55 0-68-6-27-11-38-37-5-13-5-68 0-56 5-68 11-27 38-38 13-5 68-5h500q56 0 68 5 27 11 38 38 5 12 5 68 0 55-5 68-11 26-38 37-12 6-68 6h-25q-14 0-14 14 0 14 14 14z m-230-69q-6 1-8 6l-122 122q-10 10 0 20t20 0l101-101v424q0 14 14 14t14-14v-424l101 101q10 10 20 0t0-20l-122-122q-2-5-7-6-6-3-11 0z m213-56h1q14 0 14-14 0-14-14-14h-1q-14 0-14 14 0 14 14 14z" horiz-adv-x="1000" />

<glyph glyph-name="download-2" unicode="&#xe821;" d="M617-99h-242c-220 0-314 93-314 313v243c0 219 94 313 314 313h242c220 0 314-94 314-313v-243c0-220-94-313-314-313z m-242 808c-187 0-253-66-253-252v-243c0-186 66-253 253-253h242c187 0 253 67 253 253v243c0 186-66 252-253 252h-242z m121-505c-8 0-15 2-22 8l-121 122c-12 11-12 31 0 43 12 11 31 11 43 0l100-100 100 100c12 11 31 11 43 0 11-12 11-32 0-43l-122-122c-6-6-13-8-21-8z m0 0c-17 0-30 13-30 30v323c0 17 13 31 30 31 17 0 30-14 30-31v-323c0-17-13-30-30-30z m0-121c-85 0-171 14-252 41-16 6-25 23-19 39 5 15 22 24 38 19 150-50 316-50 466 0 16 5 33-4 39-19 5-16-4-33-19-39-82-27-168-41-253-41z" horiz-adv-x="1000" />

<glyph glyph-name="export" unicode="&#xe822;" d="M542 360c-8 0-16 3-22 10-12 12-12 32 0 44l341 341c12 13 32 13 44 0 13-12 13-32 0-44l-341-341c-6-7-14-10-22-10z m375 175c-17 0-32 15-32 32v168h-168c-17 0-32 15-32 32 0 17 15 31 32 31h200c17 0 31-14 31-31v-200c0-17-14-32-31-32z m-292-633h-250c-226 0-323 97-323 323v250c0 226 97 323 323 323h83c17 0 32-14 32-31 0-17-15-32-32-32h-83c-192 0-260-68-260-260v-250c0-192 68-260 260-260h250c192 0 260 68 260 260v83c0 17 15 32 32 32 17 0 31-15 31-32v-83c0-226-97-323-323-323z" horiz-adv-x="1000" />

<glyph glyph-name="export-bold" unicode="&#xe823;" d="M675 767h-350c-151 0-242-91-242-242v-349c0-152 91-243 242-243h349c152 0 242 91 242 242v350c1 151-90 242-241 242z m44-431c0-17-14-31-31-31-18 0-32 14-32 31v126l-321-322c-7-6-15-9-22-9s-16 3-23 9c-12 13-12 33 0 45l322 321h-126c-17 0-31 14-31 32 0 17 14 31 31 31h202c17 0 31-14 31-31v-202z" horiz-adv-x="1000" />

<glyph glyph-name="eye" unicode="&#xe824;" d="M500 170c-100 0-180 81-180 180 0 100 80 180 180 180s180-80 180-180c0-99-80-180-180-180z m0 298c-65 0-118-53-118-118s53-118 118-118 118 53 118 118-53 118-118 118z m0-494c-157 0-305 92-406 251-44 69-44 181 0 250 102 159 250 251 406 251 156 0 304-92 406-251 44-69 44-181 0-250-102-159-250-251-406-251z m0 689c-135 0-263-80-353-222-32-48-32-133 0-182 90-141 218-222 353-222 135 0 263 81 353 222 32 49 32 134 0 182-90 142-218 222-353 222z" horiz-adv-x="1000" />

<glyph glyph-name="facebook" unicode="&#xe825;" d="M370 850h173c21-5 37-25 37-47 0-46 0-92 0-138 0-10-1-20-6-28-8-15-25-26-43-26-30-1-60 0-90-1-10 0-20 0-28-6-6-8-5-18-5-28 0-21 0-42 0-63h110c9 0 17-1 25-4 14-6 26-19 29-34 2-7 2-14 2-21 0-49 0-97 0-145 0-18-12-36-29-44-13-6-27-4-41-4-32-1-64 0-96-1 0-119 0-238 0-357 0-12-3-23-10-33-9-13-25-20-41-20-53 0-106 0-159 0-14 0-28 4-38 14-10 9-15 23-15 37 0 118 0 236 0 353 0 3 1 7-3 7-30 0-61-1-92 0-14 0-27 5-37 15-9 10-13 22-13 35 0 46 0 93 0 139 0 7 0 14 1 21 2 16 13 30 28 37 8 4 17 5 25 5 31 0 61 0 91 0 0 27 0 54 0 81 1 32 5 65 16 95 13 38 34 72 64 99 39 36 92 56 145 62z m-35-67c-24-7-48-19-67-36-25-21-43-51-52-82-9-28-11-56-11-85 0-31 0-63 0-95 0-16-16-31-33-31-37 0-75 0-112 0 0-45 0-90 0-135 37 0 75 0 112 0 18 1 34-16 33-33 0-126 0-252 0-377h143c0 125 0 251 0 377-1 17 15 34 33 33 44 0 89 0 133 0 0 45 0 90 0 135-44 0-89 0-133 0-17 0-33 15-33 31 0 32 0 64 0 96 0 24 6 50 24 66 22 20 53 22 80 22 23 0 45 0 68 0 0 42 0 83 0 124-31 0-61 0-91 0-32 1-64 0-94-10z" horiz-adv-x="583" />

<glyph glyph-name="house" unicode="&#xe826;" d="M917-98h-834c-17 0-31 14-31 31 0 17 14 32 31 32h834c17 0 31-15 31-32 0-17-14-31-31-31z m-763 31h-62l2 502c0 35 16 68 44 90l292 227c41 32 99 32 140 0l292-227c28-22 44-55 44-90v-502h-62v501c0 16-8 31-20 41l-292 227c-19 15-45 15-64 0l-292-227c-12-10-20-25-20-41l-2-501z m554-31h-416c-17 0-32 14-32 31v396c0 52 43 94 94 94h292c52 0 94-42 94-94v-396c0-17-15-31-32-31z m-385 63h354v364c0 17-14 31-31 31h-292c-17 0-31-14-31-31v-364z m94 114c-17 0-32 14-32 31v63c0 17 15 31 32 31 17 0 31-14 31-31v-63c0-17-14-31-31-31z m146 427h-125c-18 0-32 14-32 32 0 17 14 31 32 31h125c17 0 31-14 31-31 0-18-14-32-31-32z" horiz-adv-x="1000" />

<glyph glyph-name="house-bold" unicode="&#xe827;" d="M417 204c-17 0-32-14-32-31v-63c0-17 15-31 32-31 17 0 31 14 31 31v63c0 17-14 31-31 31z m500-239h-42v469c0 26-12 50-32 66l-292 227c-30 23-72 23-102 0l-292-227c-20-16-32-40-32-65l-2-470h-40c-17 0-31-14-31-32 0-17 14-31 31-31h834c17 0 31 14 31 31 0 18-14 32-31 32z m-479 604h125c17 0 31-14 31-31 0-18-14-32-31-32h-125c-18 0-32 14-32 32 0 17 14 31 32 31z m270-604h-416v364c0 35 28 63 62 63h292c34 0 62-28 62-63v-364z" horiz-adv-x="1000" />

<glyph glyph-name="instagram" unicode="&#xe828;" d="M600-75h-240c-217 0-310 93-310 310v240c0 217 93 310 310 310h240c217 0 310-93 310-310v-240c0-217-93-310-310-310z m-240 800c-184 0-250-66-250-250v-240c0-184 66-250 250-250h240c184 0 250 66 250 250v240c0 184-66 250-250 250h-240z m120-540c-94 0-170 76-170 170 0 94 76 170 170 170 94 0 170-76 170-170 0-94-76-170-170-170z m0 280c-61 0-110-49-110-110s49-110 110-110 110 49 110 110-49 110-110 110z m200 70c-5 0-10 1-15 3-5 2-9 5-13 9-4 4-7 8-9 13-2 5-3 10-3 15 0 5 1 10 3 15 2 5 5 9 9 13 2 2 4 4 6 5 2 2 4 3 7 4 2 1 5 2 7 2 13 3 27-1 36-11 4-4 7-8 9-13 2-5 3-10 3-15 0-5-1-10-3-15-2-5-5-9-9-13-4-4-8-7-13-9-5-2-10-3-15-3z" horiz-adv-x="960" />

<glyph glyph-name="left" unicode="&#xe829;" d="M625-11c-8 0-16 3-22 9l-272 272c-44 44-44 116 0 160l272 272c12 12 32 12 44 0 12-12 12-32 0-44l-272-272c-20-20-20-52 0-72l272-272c12-12 12-32 0-44-6-6-14-9-22-9z" horiz-adv-x="1000" />

<glyph glyph-name="linkedin" unicode="&#xe82a;" d="M156 850h8c40-1 77-22 98-55 17-26 23-58 17-87-5-30-23-57-48-74-23-17-53-25-82-22-33 2-64 19-85 45-19 23-28 54-25 84 2 31 18 61 43 81 21 17 47 27 74 28z m-8-60c-7-1-13-4-20-7-25-14-37-47-26-74 10-29 45-46 75-37 32 9 52 44 42 74-7 30-40 51-71 44z m-106-256c6 12 18 20 32 20 56 0 111 0 167 0 8 0 16-1 23-5 11-7 17-19 17-31 0-211 0-422 0-633 0-18-15-34-33-35h-175c-13 1-25 8-30 19-5 9-4 20-4 30 0 202 0 405 0 607 0 9-1 19 3 28z m57-39v-586c40 0 81 0 122 0 0 195 0 391 0 586-41 0-82 0-122 0z m266 52c6 5 15 7 23 7 57 0 114 0 171 0 13 0 25-7 31-18 5-8 4-19 4-29 18 8 37 15 57 19 46 9 95 3 138-17 46-22 83-59 110-101 21-32 36-69 42-107 6-29 5-58 5-88 0-111 0-222 0-334 0-15-12-28-27-29h-176c-15 1-28 14-27 29 0 124 0 248 0 371 0 13-1 27-7 38-11 22-36 35-60 33-23-2-43-18-51-40-5-13-4-28-4-42 0-120 0-240 0-360 0-15-14-29-29-29h-182c-17 1-31 16-31 33 0 212 0 424 0 635 0 11 4 22 13 29z m47-52v-586h122v349c0 14 2 28 6 41 13 37 45 67 83 77 28 7 58 4 84-8 32-15 57-44 65-78 3-11 4-22 4-34v-347h110v310c0 25 1 50-4 75-10 51-38 100-78 134-28 27-68 43-107 43-40 1-79-12-109-37-5-4-10-8-17-10-11-3-24 2-31 11-5 6-6 15-6 22 0 13 0 26 0 38h-122z" horiz-adv-x="958" />

<glyph glyph-name="location" unicode="&#xe82b;" d="M500 265q-64 0-110 45-46 46-46 110 0 65 46 111 46 45 110 45 65 0 110-45 46-46 46-111 0-64-46-110-45-45-110-45z m0 51q43 0 74 31 30 30 30 73 0 105-104 105-104 0-104-105 0-43 30-73 31-31 74-31z m-374 186q31 139 142 218 101 73 232 72 131 0 232-72 111-80 142-218 61-270-206-526-70-68-168-68-98 0-168 68-267 257-206 526z m50-11l0 0q-55-241 191-478 56-54 133-54 77 0 132 54 247 236 192 477-27 120-122 188-87 63-202 63-114 0-202-63-95-68-122-187z" horiz-adv-x="1000" />

<glyph glyph-name="mail" unicode="&#xe82c;" d="M325 27q-112 0-146 17-45 23-68 68-17 34-17 146v184q0 38 2 68 0 0 0 1-2 9 1 18 5 41 14 59 23 45 68 68 34 17 146 17h350q113 0 146-17 45-23 68-68 10-19 14-61 3-8 2-18-1-1-1-1 2-29 2-66v-184q0-112-17-146-23-45-68-68-33-17-146-17z m0 63h350q98 0 118 10 27 14 41 41 10 20 10 117v184q0 8 0 15l-178-118q-85-56-119-65-46-11-92 0-34 9-119 65l-180 120q0-8 0-17v-184q0-97 11-117 13-27 41-41 20-10 117-10z m-165 442l211-141q75-50 99-56 31-7 63 0 23 6 98 56l209 139q-2 21-6 29-14 27-41 41-20 10-118 10h-350q-97 0-117-10-28-14-41-41-4-8-7-27z" horiz-adv-x="1000" />

<glyph glyph-name="menu" unicode="&#xe82d;" d="M875 527h-750c-17 0-31 14-31 31 0 17 14 32 31 32h750c17 0 31-15 31-32 0-17-14-31-31-31z m0-208h-750c-17 0-31 14-31 31 0 17 14 31 31 31h750c17 0 31-14 31-31 0-17-14-31-31-31z m0-209h-750c-17 0-31 15-31 32 0 17 14 31 31 31h750c17 0 31-14 31-31 0-17-14-32-31-32z" horiz-adv-x="1000" />

<glyph glyph-name="message-edit" unicode="&#xe82e;" d="M668-99h-525c-39 0-71 31-71 70v526c0 179 94 273 273 273h323c179 0 273-94 273-273v-323c0-179-94-273-273-273z m-323 808c-145 0-212-67-212-212v-526c0-5 4-10 10-10h525c145 0 213 68 213 213v323c0 145-68 212-213 212h-323z m-2-606c-19 0-37 7-49 19-16 16-23 37-19 61l11 80c3 17 14 40 26 52l210 210c72 72 135 40 174 0 31-31 46-64 42-97-2-26-16-51-42-77l-210-210c-12-13-34-24-52-26l-80-12c-3 0-8 0-11 0z m266 404c-15 0-28-9-44-24l-210-210c-3-4-8-14-9-18l-11-80c0-4 0-8 2-9 1-2 5-3 9-2l80 11c5 1 15 6 18 9l210 210c15 15 23 29 24 41 2 14-6 30-24 48-18 17-32 24-45 24z m36-195c-3 0-6 0-8 1-73 21-132 79-153 153-4 16 5 32 21 37 17 5 33-5 38-21 15-53 57-95 110-110 16-5 26-22 21-38-4-13-16-22-29-22z" horiz-adv-x="1000" />

<glyph glyph-name="message-edit-bold" unicode="&#xe82f;" d="M667 767h-334c-166 0-250-84-250-250v-542c0-23 19-42 42-42h542c166 0 250 84 250 250v334c0 166-84 250-250 250z m-204-611c-10-11-30-20-44-22l-86-12c-4-1-7-1-10-1-15 0-28 5-38 14-11 12-16 29-13 48l12 86c2 14 11 34 22 44l157 157c2-7 6-15 10-23 3-8 7-15 11-22 4-6 7-12 11-16 4-6 8-12 11-15 2-2 3-4 4-5 9-10 18-20 28-28 2-2 4-3 4-4 6-4 11-9 16-12 5-4 11-7 17-11 7-4 14-8 22-12 8-4 16-7 23-9l-157-157z m227 226l-33-32c-2-2-5-4-8-4-1 0-2 0-3 1-72 20-129 77-149 149-2 4 0 8 3 11l33 33c53 53 104 52 157 0 26-27 40-53 39-80 0-26-13-51-39-78z" horiz-adv-x="1000" />

<glyph glyph-name="message-square-dots" unicode="&#xe830;" d="M845 5l-131 66q-13 6-16 8-5 1-9 2-3 0-18 0h-335q-107 0-139 16-44 23-66 66-16 32-16 140v174q0 107 16 139 22 44 66 66 32 16 139 16h333q108 0 140-16 43-22 65-66 17-32 17-139v-444q0-13-9-22-10-9-23-9-7 0-14 3z m-17 79v393q0 92-9 111-13 25-39 38-18 10-111 10h-333q-92 0-111-10-25-13-38-38-10-19-10-111v-174q0-93 10-112 13-25 38-38 19-9 111-9h335q19 0 27-2 10-1 19-4 8-3 25-11l86-43z m-484 337h1q13 0 22-9 9-9 9-22 0-13-9-22-9-10-22-10h-1q-13 0-22 10-9 9-9 22 0 13 9 22 9 9 22 9z m317 0h1q13 0 22-9 9-9 9-22 0-13-9-22-9-10-22-10h-1q-13 0-22 10-9 9-9 22 0 13 9 22 9 9 22 9z m-158 0h0q13 0 22-9 9-9 9-22 0-13-9-22-9-10-22-10h0q-13 0-22 10-9 9-9 22 0 13 9 22 9 9 22 9z" horiz-adv-x="1000" />

<glyph glyph-name="microphone" unicode="&#xe831;" d="M500 27c-155 0-281 126-281 281v209c0 155 126 281 281 281 155 0 281-126 281-281v-209c0-155-126-281-281-281z m0 708c-120 0-219-97-219-218v-209c0-120 99-218 219-218s219 98 219 218v209c0 121-99 218-219 218z m0-833c-224 0-406 182-406 406v84c0 17 14 31 31 31 17 0 31-14 31-31v-84c0-189 154-343 344-343 190 0 344 154 344 343v84c0 17 14 31 31 31 17 0 31-14 31-31v-84c0-224-182-406-406-406z m109 605c-4 0-7 1-11 2-67 24-141 24-208 0-16-6-34 2-40 19-5 16 3 34 19 40 81 29 170 29 251 0 16-6 24-24 18-40-4-13-16-21-29-21z m-38-125c-3 0-6 1-8 1-45 13-92 13-137 0-17-4-33 6-38 23-5 16 5 33 22 38 55 15 114 15 169 0 17-5 27-22 22-38-4-15-16-24-30-24z" horiz-adv-x="1000" />

<glyph glyph-name="minus" unicode="&#xe832;" d="M250 381h500q13 0 22-9 9-9 9-22 0-13-9-22-9-9-22-9h-500q-13 0-22 9-9 9-9 22 0 13 9 22 9 9 22 9z" horiz-adv-x="1000" />

<glyph glyph-name="pause" unicode="&#xe833;" d="M444 54v592c0 57-24 79-84 79h-151c-60 0-84-22-84-79v-592c0-57 24-79 84-79h151c60 0 84 22 84 79z m431 0v592c0 57-24 79-84 79h-151c-60 0-84-22-84-79v-592c0-57 24-79 84-79h151c60 0 84 22 84 79z" horiz-adv-x="1000" />

<glyph glyph-name="play" unicode="&#xe834;" d="M334 693c-56 32-126-8-126-72v-542c0-64 70-105 126-72l461 271c54 32 54 112 0 144l-461 271z" horiz-adv-x="1000" />

<glyph glyph-name="play-2" unicode="&#xe835;" d="M729 450l-496-299c-29-17-66 4-66 38v333c0 146 157 236 283 164l191-110 87-50c29-17 30-59 1-76z m25-244l-169-98-168-97c-61-34-129-27-179 8-24 16-21 54 5 69l529 317c25 15 58 1 63-28 10-64-17-134-81-171z" horiz-adv-x="1000" />

<glyph glyph-name="plus" unicode="&#xe836;" d="M250 381h219v219q0 13 9 22 9 9 22 9 13 0 22-9 9-9 9-22v-219h219q13 0 22-9 9-9 9-22 0-13-9-22-9-9-22-9h-219v-219q0-13-9-22-9-9-22-9-13 0-22 9-9 9-9 22v219h-219q-13 0-22 9-9 9-9 22 0 13 9 22 9 9 22 9z" horiz-adv-x="1000" />

<glyph glyph-name="qoute" unicode="&#xe837;" d="M94-121l141 261h-215c-11 0-20 9-20 20v396c0 11 9 20 20 20h431c11 0 20-9 20-20v-416l-157-290h-203c-14 0-24 16-17 29z m576-1l124 262h-186c-11 0-20 9-20 20v396c0 11 9 20 20 20h372c11 0 20-9 20-20v-416l-137-290h-175c-15 0-24 15-18 28z" horiz-adv-x="1000" />

<glyph glyph-name="receive-square-bold" unicode="&#xe838;" d="M675 767h-350c-151 0-242-91-242-242v-349c0-152 91-243 242-243h349c152 0 242 91 242 242v350c1 151-90 242-241 242z m-322-374c12 12 32 12 44 0l72-72v258c0 17 14 31 31 31 17 0 31-14 31-31v-258l72 72c12 12 32 12 44 0 12-13 12-33 0-45l-125-125c-3-3-6-5-10-6-4-2-8-3-12-3-4 0-8 1-12 3-4 1-7 3-10 6l-125 125c-12 12-12 32 0 45z m407-260c-84-28-172-43-260-43s-176 15-260 43c-16 5-25 23-20 39 6 16 23 26 40 20 155-52 325-52 480 0 17 5 35-4 40-20 5-17-4-34-20-39z" horiz-adv-x="1000" />

<glyph glyph-name="right" unicode="&#xe839;" d="M371-11c-8 0-16 3-22 9-12 12-12 32 0 44l272 272c20 20 20 52 0 72l-272 272c-12 12-12 32 0 44 12 12 32 12 44 0l272-272c21-21 33-50 33-80 0-30-11-59-33-80l-272-272c-6-6-14-9-22-9z" horiz-adv-x="1000" />

<glyph glyph-name="search-normal" unicode="&#xe83a;" d="M479-56c-235 0-427 191-427 427 0 235 192 427 427 427 236 0 427-192 427-427 0-236-191-427-427-427z m0 791c-201 0-364-163-364-364 0-201 163-365 364-365s365 164 365 365c0 201-164 364-365 364z m438-833c-8 0-16 3-22 9l-84 84c-12 12-12 32 0 44 12 12 32 12 44 0l84-84c12-12 12-32 0-44-6-6-14-9-22-9z" horiz-adv-x="1000" />

<glyph glyph-name="share" unicode="&#xe83b;" d="M784 214c-54 0-102-26-133-66l-318 158c5 16 8 29 8 44 0 15-3 30-8 44l316 158c33-40 81-66 135-66 94 0 171 77 171 171s-77 170-171 170c-94 0-170-76-170-170 0-15 2-30 6-44l-316-158c-33 40-79 66-133 66-95 0-171-77-171-171s76-170 171-170c54 0 102 26 133 65l316-158c-4-14-6-28-6-44 0-94 76-170 170-170 94 0 171 76 171 170 0 94-77 171-171 171z m0 545c57 0 102-46 102-102 0-57-45-102-102-102-56 0-102 45-102 102s46 102 102 102z m-613-511c-57 0-103 46-103 102 0 57 46 102 103 102 56 0 102-45 102-102s-46-102-102-102z m613-307c-56 0-102 46-102 102 0 57 46 103 102 103 57 0 102-46 102-103 0-56-45-102-102-102z" horiz-adv-x="955" />

<glyph glyph-name="shopping-cart" unicode="&#xe83c;" d="M758 110h-444c-41 0-81 18-109 48-27 31-42 72-38 113l34 415c2 13-3 25-12 35-9 9-21 14-34 14h-72c-17 0-31 15-31 32 0 17 14 31 31 31h73c30 0 59-13 79-35 12-13 20-27 25-43h520c42 0 81-17 109-47 28-30 42-70 39-112l-23-313c-4-76-71-138-147-138z m-496 548l-33-392c-2-24 6-47 22-65 17-18 39-28 63-28h444c43 0 82 37 86 80l22 313c2 24-6 48-22 65-16 17-39 27-64 27h-518v0z m415-756c-46 0-83 38-83 83 0 46 37 84 83 84 46 0 83-38 83-84 0-45-37-83-83-83z m0 104c-12 0-21-9-21-21 0-11 9-20 21-20 12 0 21 9 21 20 0 12-9 21-21 21z m-333-104c-46 0-84 38-84 83 0 46 38 84 84 84s83-38 83-84c0-45-37-83-83-83z m0 104c-12 0-21-9-21-21 0-11 9-20 21-20s21 9 21 20c0 12-10 21-21 21z m531 479h-500c-17 0-31 15-31 32 0 17 14 31 31 31h500c17 0 31-14 31-31 0-17-14-32-31-32z" horiz-adv-x="1000" />

<glyph glyph-name="sort" unicode="&#xe83d;" d="M875 527h-750c-17 0-31 14-31 31 0 17 14 32 31 32h750c17 0 31-15 31-32 0-17-14-31-31-31z m-125-208h-500c-17 0-31 14-31 31 0 17 14 31 31 31h500c17 0 31-14 31-31 0-17-14-31-31-31z m-167-209h-166c-17 0-32 15-32 32 0 17 15 31 32 31h166c17 0 32-14 32-31 0-17-15-32-32-32z" horiz-adv-x="1000" />

<glyph glyph-name="star" unicode="&#xe83e;" d="M439 704c18 55 94 55 112 0l69-212c8-24 30-40 56-40h223c57 0 80-73 34-107l-180-131c-21-15-29-41-21-65l68-212c18-55-44-100-90-66l-180 131c-21 15-49 15-70 0l-180-131c-46-34-108 11-90 66l68 212c8 24 0 50-21 65l-180 131c-46 34-23 107 34 107h223c26 0 48 16 56 40l69 212z" horiz-adv-x="1000" />

<glyph glyph-name="telegram" unicode="&#xe83f;" d="M593-51c-50 0-119 34-174 200l-30 90-90 30c-165 55-200 124-200 174 0 48 35 118 200 174l354 118c88 29 162 20 207-25 45-45 54-119 25-207l-118-354c-56-166-125-200-174-200z m-275 608c-115-39-157-84-157-114s42-76 157-115l105-35c10-3 17-10 20-19l35-105c38-116 85-157 115-157s75 41 114 157l118 354c21 64 18 116-10 143-27 27-79 31-143 9l-354-118z m103-307c-8 0-16 3-22 9-12 12-12 32 0 44l149 150c12 12 32 12 45 0 12-12 12-32 0-44l-150-150c-5-6-14-9-22-9z" horiz-adv-x="1000" />

<glyph glyph-name="tick" unicode="&#xe840;" d="M155 268l191-207 499 540q10 11 24 17 13 6 28 7 15 1 29-5 14-5 25-15 11-10 17-24 6-13 7-28 1-15-5-29-5-14-15-25l-554-600q-2-2-4-4-11-10-25-15-14-6-29-5-15 1-28 7-14 6-24 17l-246 267q-10 11-15 25-5 14-5 29 1 15 7 28 6 14 17 24 11 10 25 15 14 5 29 5 15-1 28-7 14-6 24-17z" horiz-adv-x="1000" />

<glyph glyph-name="top" unicode="&#xe841;" d="M830 192c-8 0-16 3-22 9l-272 272c-20 20-52 20-72 0l-272-272c-12-12-32-12-44 0-12 12-12 32 0 44l272 272c44 44 116 44 160 0l272-272c12-12 12-32 0-44-6-6-14-9-22-9z" horiz-adv-x="1000" />

<glyph glyph-name="twitter" unicode="&#xe842;" d="M584 711c35 13 75 19 113 10 33-8 64-23 95-38 10 4 21 8 32 12 24 8 47 19 70 28 24 9 53-8 57-33 3-14-3-27-8-40-1-2-2-4-3-6 16-8 26-24 26-41v-2c0-13-5-25-10-37-14-31-37-59-65-78-2-94-26-189-71-272-32-60-75-115-127-159-54-47-117-82-186-102-49-15-102-21-154-20-63 1-126 6-187 19-43 10-87 22-124 46-10 6-20 12-27 22-5 7-8 16-9 24v6c1 19 14 36 31 43 9 4 20 4 29 4 34 1 67 6 99 15-15 7-30 16-42 27-33 26-56 64-69 104-7 23 9 47 31 55-26 30-47 64-59 102-8 16-6 36 5 50 8 11 21 16 35 18-14 32-23 67-22 102 1 42 16 82 36 118 10 16 35 19 49 6 14-13 27-26 41-40 34-32 72-61 114-82 48-25 101-40 153-52 4 33 15 66 33 95 26 43 66 78 114 96z m-37-89c-33-31-53-76-55-121 0-9 0-18-5-25-6-12-21-19-34-17-19 4-36 8-54 12-17 5-34 9-50 14-15 5-30 11-44 16-51 20-99 48-140 83-18 14-34 30-51 45-10-25-15-52-13-80 3-39 22-76 47-106 6-7 12-16 12-27 1-18-15-34-33-33-14 1-27 7-39 13 20-44 53-82 93-109 8-6 16-15 17-26 2-18-12-36-30-37-17 0-34 4-49 9 9-19 22-37 39-51 19-15 42-25 65-31 7-1 14-3 21-5 11-3 18-12 21-22 4-12 0-25-9-34-6-4-13-7-20-11-49-24-103-35-158-38 16-8 33-15 50-21 63-19 130-27 195-30 3 0 5 0 8 0 31-1 62-2 93 3 49 6 96 20 140 42 74 38 138 97 184 167 55 85 85 186 86 287 0 1 0 2 0 2 0 9 1 18 6 26 4 7 12 12 19 16 20 13 35 32 45 53-18-3-36 11-38 29-2 13 5 23 12 33 2 3 4 7 6 10-28-11-57-23-86-32-10-3-21 0-30 6-20 10-41 20-63 28-14 4-27 9-42 9-43 1-85-17-116-47z" horiz-adv-x="1000" />

<glyph glyph-name="unmute" unicode="&#xe843;" d="M750 152c-7 0-13 2-19 6-13 11-16 30-6 44 53 70 64 163 30 243-7 16 1 35 17 41 16 7 34-1 41-16 42-101 27-218-38-306-6-8-15-12-25-12z m76-104c-6 0-13 2-18 6-14 11-17 30-7 44 89 119 109 278 52 415-7 16 0 34 16 41 16 6 34-1 41-17 66-157 44-340-59-477-6-8-15-12-25-12z m-241 262c26 26 71 8 71-30v-122c0-71-26-125-72-151-19-10-39-15-61-15-33 0-69 11-106 34l-27 17c-22 14-26 45-7 64l202 203z m322 447c-12 13-33 13-45 0l-207-206c-2 67-27 117-71 141-47 26-106 19-167-19l-122-75c-8-5-17-8-27-8h-60c-100 0-156-56-156-157v-166c0-101 56-157 156-157h7l-122-122c-13-13-13-33 0-46 6-5 14-9 22-9 9 0 17 4 23 10l769 769c13 13 13 33 0 45z" horiz-adv-x="1000" />

<glyph glyph-name="user" unicode="&#xe844;" d="M486 375h-3c-2 1-5 1-7 0-116 4-204 95-204 207 0 115 94 208 208 208 114 0 208-93 208-208-1-112-89-203-200-207h-2z m-6 355c-81 0-148-66-148-148 0-80 63-144 142-147 2 1 8 1 13 0 79 4 140 68 141 147 0 82-67 148-148 148z m7-792c-79 0-157 20-217 60-56 37-86 87-86 142 0 55 30 106 86 143 120 79 314 79 434 0 55-37 86-87 86-142 0-55-31-106-86-143-60-40-139-60-217-60z m-184 294c-38-25-59-58-59-92 0-34 21-67 59-92 100-67 268-67 367 0 39 25 60 58 60 92 0 34-22 67-60 92-99 67-267 67-367 0z" horiz-adv-x="960" />

<glyph glyph-name="user-bold" unicode="&#xe845;" d="M500 767c-109 0-198-89-198-198 0-107 84-194 193-198 3 1 7 1 9 0h3c107 4 191 91 191 198 0 109-89 198-198 198z m212-507c-117 78-306 78-423 0-53-35-82-83-82-134 0-51 29-99 81-134 59-39 135-59 212-59s153 20 212 59c52 36 81 83 81 135 0 51-29 98-81 133z" horiz-adv-x="1000" />

<glyph glyph-name="user-square" unicode="&#xe846;" d="M625-98h-250c-55 0-101 5-140 17-14 4-23 18-22 33 10 124 137 222 287 222 150 0 276-97 287-222 1-15-8-29-22-33-39-12-85-17-140-17z m-345 70c28-5 59-7 95-7h250c36 0 68 2 95 7-22 81-113 140-220 140s-198-59-220-140z m345 826q323 0 323-323v-250q0-254-184-306-2-1-5-1-13-1-23 7-10 9-11 21-14 166-225 166t-225-166q0-3-1-5-3-13-15-19-11-6-23-3-184 52-184 306v250q0 323 323 323z m0-63h-250q-260 0-260-260v-250q0-181 105-233 20 69 86 120 82 62 194 62t194-62q67-51 86-120 105 52 105 233v250q0 260-260 260z m-125-507q-75 0-128 53-52 53-52 128 0 75 52 128 53 53 128 53 75 0 128-53 52-53 52-128 0-75-52-128-53-53-128-53z m0 63q118 0 118 118 0 49-35 84-34 34-83 34-118 0-118-118 0-49 35-83 34-35 83-35z m0-63c-100 0-180 82-180 181 0 100 80 181 180 181 100 0 180-81 180-181 0-99-80-181-180-181z m0 299c-65 0-118-53-118-118 0-65 53-118 118-118s118 53 118 118c0 65-53 118-118 118z" horiz-adv-x="1000" />

<glyph glyph-name="user-square-bold" unicode="&#xe847;" d="M675 767h-350c-151 0-242-91-242-242v-350c0-117 54-197 149-228 27-9 59-14 93-14h350c34 0 66 5 93 14 95 31 149 111 149 228v350c0 151-91 242-242 242z m179-592c0-89-35-145-105-168-41 79-136 136-249 136-112 0-208-56-249-136h0c-70 22-105 79-105 168v350c0 117 62 179 179 179h350c117 0 179-62 179-179v-350z m-354 342c-82 0-149-67-149-149 0-83 67-150 149-150 83 0 149 67 149 150s-66 149-149 149z" horiz-adv-x="1000" />

<glyph glyph-name="verify" unicode="&#xe848;" d="M450 218c-9 0-17 3-22 9l-101 101c-12 12-12 32 0 44 12 12 32 12 44 0l79-79 179 180c12 12 32 12 44 0 12-13 12-33 0-45l-201-201c-6-6-14-9-22-9z m50-316c-26 0-52 9-73 26l-66 57c-6 6-23 12-32 12h-71c-62 0-112 50-112 111v72c0 8-6 25-12 31l-56 67c-34 40-34 104 0 144l56 66c6 7 12 23 12 32v72c0 61 50 111 112 111h72c8 0 25 7 32 12l66 57c40 35 104 35 145 0l66-57c6-6 23-12 32-12h71c61 0 111-50 111-111v-71c0-9 7-26 12-32l57-66c35-41 35-105 0-145l-57-66c-5-7-12-24-12-32v-71c0-62-50-112-111-112h-71c-9 0-26-6-32-12l-66-56c-20-18-47-27-73-27z m-242 739c-28 0-50-22-50-49v-72c0-23-11-54-26-72l-57-66c-14-17-14-47 0-64l57-66c15-18 26-48 26-72v-71c0-27 22-49 50-49h72c24 0 54-12 73-27l65-57c17-15 47-15 65 0l65 57c19 15 49 27 73 27h71c27 0 49 22 49 49v71c0 24 12 54 27 73l57 65c15 17 15 47 0 65l-57 65c-15 19-27 49-27 73v71c0 27-22 49-49 49h-71c-24 0-54 11-73 27l-65 57c-18 14-48 14-65 0l-65-57c-19-16-50-27-73-27h-72z" horiz-adv-x="1000" />

<glyph glyph-name="volume" unicode="&#xe849;" d="M750 152c-7 0-13 2-19 6-13 11-16 30-6 44 65 87 65 209 0 296-10 14-7 33 6 44 14 10 34 7 44-7 82-109 82-261 0-370-6-9-15-13-25-13z m76-104c-6 0-13 2-18 6-14 11-17 30-7 44 112 148 112 356 0 504-10 14-7 33 7 44 13 10 33 7 43-6 128-171 128-409 0-580-6-8-15-12-25-12z m-242 645c-46 25-106 19-167-19l-122-76c-8-5-17-8-27-8h-60c-100 0-156-56-156-157v-166c0-101 56-157 156-157h60c10 0 19-2 27-7l122-77c37-23 73-34 106-34 22 0 42 5 61 16 46 25 72 79 72 151v382c0 72-26 126-72 152z" horiz-adv-x="1000" />

<glyph glyph-name="whatsapp" unicode="&#xe84a;" d="M80-75c-8 0-16 3-21 9-8 7-11 19-8 29l50 188c-33 63-51 133-51 204 0 238 193 430 430 430s430-192 430-430c0-237-193-430-430-430-72 0-143 18-206 53l-186-52c-3-1-5-1-8-1z m198 115c5 0 10-2 15-4 56-33 121-51 187-51 204 0 370 166 370 370s-166 370-370 370-370-166-370-370c0-65 17-129 50-185 4-7 5-15 3-23l-40-149 147 41c2 0 5 1 8 1z m312 85c-25 0-51 5-78 17-25 11-50 25-74 43-24 18-48 38-70 59-21 22-41 45-59 69-18 26-32 50-43 75-11 26-16 52-16 77 0 18 3 34 9 50 6 16 17 31 30 44 26 25 63 34 92 20 10-4 18-11 25-21l46-65c5-6 8-13 11-20 3-8 5-16 5-24 0-10-2-20-8-30-4-6-9-13-16-20l-5-5c3-3 5-7 10-12 8-10 17-20 27-30 10-10 20-19 30-28 5-4 9-7 12-9l6 6c7 7 14 12 22 16 13 8 33 10 51 3 7-3 13-6 20-11l67-47c9-7 16-15 21-25 4-10 5-19 5-28 0-12-2-24-8-35-5-11-11-20-18-28-13-14-28-25-44-31-16-7-33-10-50-10z m-238 400c-3 0-11 0-21-10-7-7-13-14-16-23-4-8-5-18-5-27 0-17 4-35 12-54 8-20 20-42 36-63 15-21 33-42 52-62 20-19 41-37 62-53 21-15 42-27 64-36 30-14 58-17 81-7 8 3 15 9 22 16 4 4 7 8 9 13 1 3 2 6 2 9 0 1 0 2-1 4l-67 47c-3 2-6 3-8 4-2-1-4-2-8-6l-16-16c-11-11-30-14-44-9l-8 3c-9 5-19 12-31 22-11 10-22 20-33 31-12 11-22 22-31 33-11 13-18 23-23 31l-4 11c-1 4-2 8-2 12 0 11 4 21 12 29l15 16c5 4 6 7 7 8-1 3-3 5-5 8l-47 66-4 3z" horiz-adv-x="960" />

<glyph glyph-name="x" unicode="&#xe84b;" d="M6 842l-6 8h144l145 0 123-181c68-100 124-183 125-184 2-2 3-1 22 22 44 51 53 62 63 73 5 7 10 12 10 12 0 1 19 22 40 48 22 25 44 51 48 55 4 5 10 12 13 16 3 3 10 12 16 18 13 16 58 69 84 99l19 22h42c40 0 43 0 41-2-1-1-16-19-35-41-18-21-47-55-64-75-17-20-33-40-36-43-4-4-17-20-31-36-13-15-40-47-59-70-114-134-132-154-132-156-1-1 16-26 144-213 176-260 245-361 246-363 0-1-25-1-144-1h-143l-3 4c-2 2-61 90-132 194-71 104-129 190-130 190 0 0-10-11-21-25-12-13-22-25-22-25-1-1-16-19-35-41-19-22-35-42-38-44-2-3-6-7-9-11-7-8-93-109-104-123-5-6-30-35-56-65l-46-54h-42c-27 0-42 0-42 1 0 1 4 5 8 10 4 4 27 31 50 59 45 52 53 62 111 130 19 23 48 56 63 74 16 19 40 47 54 63 13 16 35 42 48 57 13 15 28 32 33 39 5 6 10 11 10 11 0 1-10 15-21 32-12 17-94 138-183 269-89 131-165 242-168 247z m113-60c1-2 28-41 60-87 60-87 298-430 451-651 48-71 89-129 90-130 1-1 15-1 66-1l65 0-170 247c-94 135-230 331-302 435l-131 190-66 0-65 0z" horiz-adv-x="1000" />
</font>
</defs>
</svg>
